Jump to content

Welcome to SKDown.net
Register now to gain access to all of our features. Once registered and logged in, you will be able to create topics, post replies to existing threads, give reputation to your fellow members, get your own private messenger, post status updates, manage your profile and so much more. This message will be removed once you have signed in.
Login to Account Create an Account
Photo

ToriBlack siterip.150

- - - - -

  • Please log in to reply
No replies to this topic

#1
buomkham

buomkham

    I HONESTLY HAVE NO LIFE

  • Member
  • 13,979 posts
Tori Black collection.150

Posted Image

Complete name : Tori Black collection.150.wmv
Format : Windows Media
File size : 133 MiB
Duration : 17mn 4s

Overall bit rate : 1 085 Kbps
Maximum Overall bit rate : 1 064 Kbps
Encoded date : UTC 1970-01-01 00:00:00.000

Video
ID : 1
Format : WMV2
Codec ID : WMV2
Codec ID/Info : Windows Media Video 8
Description of the codec : wmv2
Duration : 17mn 4s
Bit rate : 969 Kbps
Width : 480 pixels
Height : 270 pixels
Display aspect ratio : 16:9
Frame rate : 29.970 fps
Bit depth : 8 bits
Bits/(Pixel*Frame) : 0.250
Stream size : 118 MiB (89%)

Audio
ID : 2
Format : WMA
Format version : Version 2
Codec ID : 161
Codec ID/Info : Windows Media Audio
Description of the codec : Windows Media Audio V8
Duration : 17mn 4s
Bit rate : 64.0 Kbps
Channel(s) : 2 channels
Sampling rate : 44.1 KHz
Bit depth : 16 bits
Stream size : 7.82 MiB (6%)

Posted Image


Premium Download: Register to see the download links!


Premium Download: Register to see the download links!


Premium Download: Register to see the download links!


Premium Download: Register to see the download links!

Working links checked on 13/04/12 by LC_bot
  • 0